耳机大家坛老帖 » 古典音乐 » 闲来无事,提供一张人头录音的下载
« 1 234» Pages: ( 1/4 total )
本页主题: 闲来无事,提供一张人头录音的下载 打印 | 加为IE收藏 | 收藏主题 | 上一主题 | 下一主题

ashyer

头衔:要钱没有,要碟一堆 要钱没有,要碟一堆

级别: 蝙蝠侠
精华: 0
发帖: 3501
威望: 897
金钱: 2125
在线时间:3279(小时)
注册时间:2003-07-02
最后登录:2013-09-19

闲来无事,提供一张人头录音的下载

http://www.sharebig.com/share.php?id=s4bjkgbmmmlMgHCa

这张人头录音是我几年前买的,限量5000张。我现在抓轨传到网上让大家下载。
顶端 Posted: 2006-12-06 08:03 | [楼 主]
ashyer

头衔:要钱没有,要碟一堆 要钱没有,要碟一堆

级别: 蝙蝠侠
精华: 0
发帖: 3501
威望: 897
金钱: 2125
在线时间:3279(小时)
注册时间:2003-07-02
最后登录:2013-09-19

这是CUE文件

PERFORMER "Strauss and Saint-Sa雗s"
TITLE "Also Sprach Zarathustra + Organ Symph. #3"
FILE "人头.ape" WAVE
TRACK 01 AUDIO
  TITLE "Also Sprach Zarathustra! - Sehr beit - Strauss"
  PERFORMER "Strauss and Saint-Sa雗s"
  INDEX 01 00:00:00
TRACK 02 AUDIO
  TITLE "Also Sprach Zarathustra! - Von den Hinterweltern - weniger breit - Strauss"
  PERFORMER "Strauss and Saint-Sa雗s"
  INDEX 01 01:56:30
TRACK 03 AUDIO
  TITLE "Also Sprach Zarathustra! - Breiter werden - Strauss"
  PERFORMER "Strauss and Saint-Sa雗s"
  INDEX 01 02:44:43
TRACK 04 AUDIO
  TITLE "Also Sprach Zarathustra! - Von der grossen Sehnsucht - Bewegter - Strauss"
  PERFORMER "Strauss and Saint-Sa雗s"
  INDEX 01 05:42:08
TRACK 05 AUDIO
  TITLE "Also Sprach Zarathustra! - Von der Freuden - und Leidenschaften - Bewegt - St..."
  PERFORMER "Strauss and Saint-Sa雗s"
  INDEX 01 07:29:23
TRACK 06 AUDIO
  TITLE "Also Sprach Zarathustra! - Das Grablied - etwas ruhiger - Strauss"
  PERFORMER "Strauss and Saint-Sa雗s"
  INDEX 01 09:34:10
TRACK 07 AUDIO
  TITLE "Also Sprach Zarathustra! - Von der Wissenschaft - sehr langsam - Strauss"
  PERFORMER "Strauss and Saint-Sa雗s"
  INDEX 01 12:33:73
TRACK 08 AUDIO
  TITLE "Also Sprach Zarathustra! - Schnell - Strauss"
  PERFORMER "Strauss and Saint-Sa雗s"
  INDEX 01 14:48:65
TRACK 09 AUDIO
  TITLE "Also Sprach Zarathustra! - Der Genesende - Strauss"
  PERFORMER "Strauss and Saint-Sa雗s"
  INDEX 01 16:28:40
TRACK 10 AUDIO
  TITLE "Also Sprach Zarathustra! - Schnell - Strauss"
  PERFORMER "Strauss and Saint-Sa雗s"
  INDEX 01 19:04:70
TRACK 11 AUDIO
  TITLE "Also Sprach Zarathustra! - Das Tanzlied - Strauss"
  PERFORMER "Strauss and Saint-Sa雗s"
  INDEX 01 21:53:28
TRACK 12 AUDIO
  TITLE "Also Sprach Zarathustra! - Das Nachwandlerlied - Strauss"
  PERFORMER "Strauss and Saint-Sa雗s"
  INDEX 01 29:53:50
TRACK 13 AUDIO
  TITLE "Also Sprach Zarathustra! - Langsam - Strauss"
  PERFORMER "Strauss and Saint-Sa雗s"
  INDEX 01 31:03:33
TRACK 14 AUDIO
  TITLE "Symphony no. 3 - Adagio - Saint-Sa雗s"
  PERFORMER "Strauss and Saint-Sa雗s"
  INDEX 01 35:00:60
TRACK 15 AUDIO
  TITLE "Symphony no. 3 - Poco adagio - Saint-Sa雗s"
  PERFORMER "Strauss and Saint-Sa雗s"
  INDEX 01 46:08:55
TRACK 16 AUDIO
  TITLE "Symphony no. 3 - Allegro Moderato - Saint-Sa雗s"
  PERFORMER "Strauss and Saint-Sa雗s"
  INDEX 01 56:35:08
TRACK 17 AUDIO
  TITLE "Symphony no. 3 - Maestoso - Saint-Sa雗s"
  PERFORMER "Strauss and Saint-Sa雗s"
  INDEX 01 64:02:38
顶端 Posted: 2006-12-06 08:05 | 1 楼
ashyer

头衔:要钱没有,要碟一堆 要钱没有,要碟一堆

级别: 蝙蝠侠
精华: 0
发帖: 3501
威望: 897
金钱: 2125
在线时间:3279(小时)
注册时间:2003-07-02
最后登录:2013-09-19

如果万一需要密码的话就是我的ID名字
ashyer

但我不确定是不是一定需要
顶端 Posted: 2006-12-06 08:08 | 2 楼
cyer


级别: 侠客
精华: 0
发帖: 224
威望: 26
金钱: 117
在线时间:154(小时)
注册时间:2004-11-23
最后登录:2013-01-04

帮你顶一下,那些下了的人怎么都不帮你顶呢……
顶端 Posted: 2006-12-06 12:54 | 3 楼
transee


级别: 骑士
精华: 0
发帖: 395
威望: 115
金钱: 429
在线时间:671(小时)
注册时间:2004-02-06
最后登录:2013-04-19

真是好东西 多谢楼主拉
顶端 Posted: 2006-12-06 17:25 | 4 楼
lm_luc

头衔:其实我不想发烧!!! 其实我不想发烧!!!

级别: 蜘蛛侠
精华: 0
发帖: 9456
威望: 1283
金钱: 6026
在线时间:1420(小时)
注册时间:2004-12-23
最后登录:2013-09-04

人头.APE........
顶端 Posted: 2006-12-06 17:29 | 5 楼
zhang2384539


级别: 骑士
精华: 0
发帖: 1582
威望: 164
金钱: 998
在线时间:2588(小时)
注册时间:2003-08-06
最后登录:2013-09-19

晚上下来听听!谢谢LZ辛苦了
顶端 Posted: 2006-12-06 17:44 | 6 楼
zhao_zzz


级别: 骑士
精华: 0
发帖: 842
威望: 179
金钱: 885
在线时间:1015(小时)
注册时间:2005-02-21
最后登录:2013-08-27

一直想下人头听听,谢LZ
顶端 Posted: 2006-12-06 18:34 | 7 楼
zl0453


级别: 侠客
精华: 0
发帖: 189
威望: 41
金钱: 189
在线时间:149(小时)
注册时间:2004-08-11
最后登录:2013-08-16

谢谢啦,好东西
顶端 Posted: 2006-12-07 21:34 | 8 楼
gfgfmoses

头衔:http://www.ray-wav.com/?u=19 http://www.ray-wav.com/?u=19

级别: 贵宾
精华: 4
发帖: 21174
威望: 2464
金钱: 6909
在线时间:12219(小时)
注册时间:2005-01-18
最后登录:2012-01-18

收了,咔咔~谢谢
:)
顶端 Posted: 2006-12-07 22:48 | 9 楼
黑瞳

头衔:DT660真的挺沉的 DT660真的挺沉的

级别: 城市猎人
精华: 0
发帖: 11017
威望: 2068
金钱: 7997
在线时间:1809(小时)
注册时间:2004-12-20
最后登录:2013-08-07

不收了
不过还是要支持下
顶端 Posted: 2006-12-07 23:12 | 10 楼
倚秋




级别: 侠客
精华: 0
发帖: 89
威望: 57
金钱: 103
在线时间:63(小时)
注册时间:2005-12-20
最后登录:2008-08-14

收了,帮顶,
同时,羡慕“闲来无事”,呵呵。
顶端 Posted: 2006-12-07 23:58 | 11 楼
gudlac




级别: 新手上路
精华: 0
发帖: 4
威望: 1
金钱: 2
在线时间:8(小时)
注册时间:2006-10-01
最后登录:2006-11-29

正在下载,谢谢分享
顶端 Posted: 2006-12-08 06:20 | 12 楼
helpmeren




级别: 侠客
精华: 0
发帖: 217
威望: 13
金钱: 55
在线时间:102(小时)
注册时间:2006-11-01
最后登录:2012-10-29

下的好慢啊,有用软件下的地址吗?
顶端 Posted: 2006-12-08 10:51 | 13 楼
ashyer

头衔:要钱没有,要碟一堆 要钱没有,要碟一堆

级别: 蝙蝠侠
精华: 0
发帖: 3501
威望: 897
金钱: 2125
在线时间:3279(小时)
注册时间:2003-07-02
最后登录:2013-09-19

下的慢只能说明你的网络商的问题,这张碟很多人下都是几十K甚至几百K的速度的。
我也爱莫能助

以后也不打算分享什么了。开始2天下载了超过100次,就3个人说谢谢。虽然我分享这张碟不是为了图什么谢字。一声谢谢也不能让我换个包子,但是大家的冷漠让我心寒。
顶端 Posted: 2006-12-08 11:58 | 14 楼
kmlwcs


级别: 骑士
精华: 0
发帖: 653
威望: 107
金钱: 526
在线时间:295(小时)
注册时间:2006-11-29
最后登录:2013-09-10

谢了LZ,正在下呢.
L
顶端 Posted: 2006-12-08 13:00 | 15 楼
xinglye



头衔:音乐天王 音乐天王

级别: 蝙蝠侠
精华: 0
发帖: 973
威望: 747
金钱: 1555
在线时间:116(小时)
注册时间:2003-10-29
最后登录:2013-09-16

谢谢分享,我直接把地址放出来不怪罪吧,可以用FLASHGET下,谢谢了
http://nano.sharebig.com/t/41339710/smbbcdgpj/0qBvLoz4575D91C04/%E4%BA%BA%E5%A4%B4.ape

对了只允许3线程,不要给踢了
顶端 Posted: 2006-12-08 13:01 | 16 楼
kmlwcs


级别: 骑士
精华: 0
发帖: 653
威望: 107
金钱: 526
在线时间:295(小时)
注册时间:2006-11-29
最后登录:2013-09-10

好的APE还真难找,难得楼主哪么热心分享好东西.再说声谢谢了!!!!!
L
顶端 Posted: 2006-12-08 13:04 | 17 楼
kmlwcs


级别: 骑士
精华: 0
发帖: 653
威望: 107
金钱: 526
在线时间:295(小时)
注册时间:2006-11-29
最后登录:2013-09-10

再顶!!!!
L
顶端 Posted: 2006-12-08 13:04 | 18 楼
ashyer

头衔:要钱没有,要碟一堆 要钱没有,要碟一堆

级别: 蝙蝠侠
精华: 0
发帖: 3501
威望: 897
金钱: 2125
在线时间:3279(小时)
注册时间:2003-07-02
最后登录:2013-09-19

Quote:
下面是引用xinglye于2006-12-08 13:01发表的:
谢谢分享,我直接把地址放出来不怪罪吧,可以用FLASHGET下,谢谢了
http://nano.sharebig.com/t/41339710/smbbcdgpj/0qBvLoz4575D91C04/%E4%BA%BA%E5%A4%B4.ape

对了只允许3线程,不要给踢了



你贴出地址我倒无所谓
只是那个是下载不了的
必须俺我的地址一步一步下
顶端 Posted: 2006-12-08 13:16 | 19 楼
« 1 234» Pages: ( 1/4 total )
耳机大家坛老帖 » ????

Powered by PHPWind 网友所发文章不代表本站立场,耳机大家坛版权所有,未经许可不得转载。 www.erji.net 浙icp备08008246号
战略合作伙伴:深圳市恒之瑞科技有限公司 《中华人民共和国增值电信业务经营许可证》粤B2-20120704
耳机大家坛成立于2002年  《耳机大家坛》图形LOGO及文字均为注册商标